<?xml version="1.0" standalone="no"?>
<!DOCTYPE svg PUBLIC "-//W3C//DTD SVG 1.1//EN" "http://www.w3.org/Graphics/SVG/1.1/DTD/svg11.dtd">
<svg xmlns="http://www.w3.org/2000/svg">
<defs >
<font id="NotoSansMono" horiz-adv-x="645" ><font-face
    font-family="Noto Sans Mono ExtraBold"
    units-per-em="1000"
    panose-1="2 11 5 9 4 5 4 2 2 4"
    ascent="1069"
    descent="-293"
    alphabetic="0" />
<glyph unicode=" " horiz-adv-x="600" />
<glyph unicode="!" horiz-adv-x="600" d="M231 244L208 714H397L374 244H231ZM302 -11Q259 -11 232 11T205 79Q205 127 232 148T302 170Q344 170 370 148T397 79Q397 35 370 12T302 -11Z" />
<glyph unicode="&quot;" horiz-adv-x="600" d="M348 456L329 714H484L464 456H348ZM136 456L116 714H271L252 456H136Z" />
<glyph unicode="#" horiz-adv-x="600" d="M91 0L122 196H13V304H140L158 411H41V520H175L207 714H319L286 520H366L397 714H508L476 520H587V411H459L441 304H559V196H424L392 0H280L312 196H233L202 0H91ZM251 304H330L348 411H269L251 304Z" />
<glyph unicode="$" horiz-adv-x="600" d="M267 29Q212 31 164 41T76 70V205Q115 184 167 167T267 148V307Q203 330 161 357T98 420T76 507Q76 563 100 602T167 664T267 693V759H339V694Q388 691 432 680T517 649L478 533Q445 549 409 558T339 571V421Q396 400
438 376T502 317T525 229Q525 152 479 99T339 32V-58H267V29ZM339 154Q366 160 379 175T392 218Q392 234 387 244T369 263T339 280V154ZM267 570Q248 568 236 561T217 541T211 510Q211 496 217 485T235 466T267 449V570Z" />
<glyph unicode="%" horiz-adv-x="600" d="M53 -5L422 719H540L173 -5H53ZM456 -9Q390 -9 352 34T314 158Q314 241 352 285T456 330Q525 330 562 286T600 158Q600 79 563 35T456 -9ZM458 84Q474 84 482 102T491 158Q491 200 483 218T458 236Q439 236 431 218T423
158Q423 120 431 102T458 84ZM142 384Q76 384 38 427T0 552Q0 635 38 679T142 723Q212 723 249 679T286 552Q286 472 249 428T142 384ZM144 478Q160 478 168 495T177 552Q177 593 169 611T144 629Q125 629 117 611T109 552Q109 513 117 496T144 478Z" />
<glyph unicode="&amp;" horiz-adv-x="600" d="M217 -10Q153 -10 111 15T47 84T25 181Q25 236 47 279T107 360T194 432Q218 450 242 469T283 513T299 565Q299 590 288 603T258 616Q237 616 225 602T213 559Q213 529 223 504T248 459T271 428L587 0H423L170 347Q155
369 135 399T100 468T85 554Q85 632 130 677T254 723Q335 723 379 679T423 561Q423 514 402 477T345 405T260 332Q229 306 208 286T175 244T164 196Q164 165 182 142T237 119Q271 119 300 137T352 186T391 253T418 324T431 388H562Q556 335 539 280T493 172T423
79T331 14T217 -10Z" />
<glyph unicode="&apos;" horiz-adv-x="600" d="M242 456L222 714H377L358 456H242Z" />
<glyph unicode="(" horiz-adv-x="600" d="M324 -171Q256 -84 221 27T185 268Q185 398 221 512T324 714H459Q393 619 361 506T328 269Q328 149 361 38T459 -171H324Z" />
<glyph unicode=")" horiz-adv-x="600" d="M276 714Q345 627 380 516T415 275Q415 145 379 31T276 -171H141Q207 -76 239 37T272 274Q272 394 239 505T141 714H276Z" />
<glyph unicode="*" horiz-adv-x="600" d="M377 311L299 450L225 313L121 375L218 502L70 523L97 638L250 596L235 758H365L349 595L505 640L530 523L381 502L480 377L377 311Z" />
<glyph unicode="+" horiz-adv-x="600" d="M241 114V294H70V412H241V594H360V412H530V294H360V114H241Z" />
<glyph unicode="," horiz-adv-x="600" d="M189 -158Q200 -113 209 -58T227 51T241 144H393L400 132Q393 106 384 70T363 -7T338 -87T311 -158H189Z" />
<glyph unicode="-" horiz-adv-x="600" d="M150 200V337H450V200H150Z" />
<glyph unicode="." horiz-adv-x="600" d="M301 -9Q259 -9 232 13T205 81Q205 128 231 149T301 171Q343 171 369 149T395 81Q395 37 369 14T301 -9Z" />
<glyph unicode="/" horiz-adv-x="600" d="M91 -7L370 721H509L230 -7H91Z" />
<glyph unicode="0" horiz-adv-x="600" d="M301 -10Q214 -10 158 33T73 158T45 359Q45 479 71 560T154 683T298 724Q385 724 442 681T527 556T555 354Q555 273 542 206T500 91T422 17T301 -10ZM201 102L125 175L385 605L460 523L201 102ZM299 121Q361 121 383 178T406
353Q406 429 397 482T364 563T299 591Q258 591 235 564T201 485T191 354Q191 236 214 179T299 121Z" />
<glyph unicode="1" horiz-adv-x="600" d="M241 391Q241 412 241 439T242 494T244 545Q228 534 214 525T187 510L122 474L55 599L264 714H400V0H241V391ZM104 0V114L242 128H400L535 114V0H104Z" />
<glyph unicode="2" horiz-adv-x="600" d="M52 0V113L215 273Q267 324 304 362T362 433T382 504Q382 546 358 567T292 588Q250 588 214 569T135 510L48 616Q88 653 126 677T206 712T304 724Q377 724 432 699T518 628T549 518Q549 464 527 418T463 327T361 228L265
144V136H560V0H52Z" />
<glyph unicode="3" horiz-adv-x="600" d="M265 -10Q218 -10 167 0T67 29V166Q112 145 164 133T257 120Q317 120 346 145T376 215Q376 245 361 264T310 291T212 300H165V428H213Q269 428 302 437T351 467T367 516Q367 552 347 571T284 590Q251 590 212 578T133
543L65 654Q113 688 172 706T296 724Q359 724 409 706T487 649T516 551Q516 506 499 471T453 411T384 373V370Q432 363 466 343T519 289T537 208Q537 138 502 89T405 15T265 -10Z" />
<glyph unicode="4" horiz-adv-x="600" d="M323 0V145H35V264L326 714H474V271H565V145H474V0H323ZM176 271H323V381Q323 391 323 409T324 447T326 486T327 515H323Q312 495 301 476T278 437L176 271Z" />
<glyph unicode="5" horiz-adv-x="600" d="M252 -10Q204 -10 155 0T66 29V170Q108 150 155 138T251 126Q307 126 337 151T367 227Q367 263 352 286T309 320T248 331Q220 331 191 327T139 314L78 346L104 714H493V578H253L244 452Q268 457 287 458T323 460Q387 460
434 434T508 358T534 238Q534 156 498 101T399 18T252 -10Z" />
<glyph unicode="6" horiz-adv-x="600" d="M309 -11Q251 -11 204 10T122 72T69 174T50 315Q50 404 69 478T129 607T237 692T401 723Q425 723 452 721T501 715V583Q478 588 455 590T407 592Q359 592 322 580T260 541T221 477T203 387H208Q222 414 243 432T293 460T357
470Q448 470 498 409T549 241Q549 164 520 108T437 20T309 -11ZM306 127Q344 127 366 153T388 236Q388 286 369 313T308 341Q281 341 260 327T227 289T215 231Q215 212 219 196T230 167T249 145T275 132T306 127Z" />
<glyph unicode="7" horiz-adv-x="600" d="M121 0L382 578H45V713H555V609L292 0H121Z" />
<glyph unicode="8" horiz-adv-x="600" d="M297 -10Q222 -10 168 12T84 77T54 184Q54 227 68 261T110 322T180 373Q146 398 123 425T88 484T77 552Q77 608 105 646T184 703T300 723Q366 723 417 704T497 647T526 551Q526 493 495 451T402 376Q450 350 481 321T529
259T545 184Q545 123 514 80T428 14T297 -10ZM298 116Q343 116 368 136T393 189Q393 212 381 230T346 265T293 302Q266 287 247 270T217 234T207 192Q207 155 231 136T298 116ZM300 448Q324 462 340 475T364 504T372 538Q372 567 351 582T301 598Q269 598 250 582T230
538Q230 518 239 502T263 474T300 448Z" />
<glyph unicode="9" horiz-adv-x="600" d="M197 -10Q173 -10 146 -9T97 -3V130Q120 125 144 123T191 120Q241 120 278 133T341 173T379 238T397 326H391Q378 300 356 282T306 254T243 244Q153 244 102 305T50 472Q50 550 79 606T163 694T291 725Q349 725 396 704T478
643T531 542T550 402Q550 330 538 267T501 153T434 66T334 10T197 -10ZM292 373Q319 373 340 386T372 424T384 480Q384 504 378 524T361 558T332 579T294 587Q256 587 234 560T211 477Q211 428 231 401T292 373Z" />
<glyph unicode=":" horiz-adv-x="600" d="M301 378Q259 378 232 400T205 468Q205 514 231 535T301 557Q343 557 369 535T395 468Q395 423 369 401T301 378ZM301 -9Q259 -9 232 13T205 81Q205 128 231 149T301 171Q343 171 369 149T395 81Q395 37 369 14T301 -9Z" />
<glyph unicode=";" horiz-adv-x="600" d="M186 -158Q196 -113 206 -58T224 50T237 143H389L396 132Q390 106 381 70T359 -8T334 -88T307 -158H186ZM321 378Q278 378 251 400T224 468Q224 516 250 537T321 559Q363 559 389 537T415 468Q415 424 389 401T321 378Z" />
<glyph unicode="&lt;" horiz-adv-x="600" d="M517 105L83 316V393L517 617V486L247 357L517 235V105Z" />
<glyph unicode="=" horiz-adv-x="600" d="M70 388V518H530V388H70ZM70 168V297H530V168H70Z" />
<glyph unicode="&gt;" horiz-adv-x="600" d="M83 105V235L353 357L83 486V617L517 393V316L83 105Z" />
<glyph unicode="?" horiz-adv-x="600" d="M203 283Q203 315 212 341T241 389T294 433Q321 451 336 467T359 499T366 535Q366 562 347 577T295 592Q260 592 223 579T135 540L75 659Q131 691 187 707T307 724Q373 724 421 703T497 643T525 547Q525 506 514 475T479
417T416 364Q392 347 377 334T355 306T348 271V244H203V283ZM277 -11Q234 -11 207 11T180 79Q180 127 206 148T277 170Q319 170 345 148T371 79Q371 35 345 12T277 -11Z" />
<glyph unicode="@" horiz-adv-x="600" d="M320 -89Q220 -89 148 -44T38 85T0 284Q0 378 22 456T86 593T187 682T322 714Q405 714 467 671T565 549T600 367Q600 316 591 270T564 187T519 129T456 108Q428 108 407 123T374 165H370Q354 141 331 125T276 108Q216
108 184 161T151 298Q151 363 171 413T228 491T320 520Q356 520 390 511T451 492L442 297Q441 289 441 279T441 262Q440 227 446 214T462 200Q474 200 483 222T497 280T503 362Q503 488 455 556T323 624Q254 624 203 581T125 463T98 291Q98 200 123 135T197 36T318
1Q364 1 409 11T495 40V-49Q459 -68 414 -78T320 -89ZM290 200Q317 200 329 235T344 337L348 423Q342 425 336 426T324 427Q297 427 281 409T258 362T250 297Q250 246 260 223T290 200Z" />
<glyph unicode="A" horiz-adv-x="600" d="M8 0L197 717H402L592 0H434L333 450Q328 474 322 501T311 554T301 602Q297 580 292 554T281 501T269 450L162 0H8ZM174 163L200 293H399L415 163H174Z" />
<glyph unicode="B" horiz-adv-x="600" d="M71 0V714H302Q427 714 489 672T551 539Q551 471 520 431T445 379V374Q480 365 507 345T549 293T565 210Q565 144 536 97T454 25T326 0H71ZM312 128Q364 128 385 154T407 220Q407 248 398 267T367 297T308 308H216V128H312ZM302
433Q352 433 374 454T396 512Q396 550 373 568T297 586H216V433H302Z" />
<glyph unicode="C" horiz-adv-x="600" d="M343 -10Q242 -10 177 33T78 157T45 345Q45 434 67 504T133 623T240 698T383 724Q433 724 475 714T562 684L515 552Q479 570 446 577T382 584Q333 584 299 568T245 520T215 445T206 348Q206 272 223 224T276 152T369 129Q407
129 448 139T535 173V29Q490 9 441 0T343 -10Z" />
<glyph unicode="D" horiz-adv-x="600" d="M43 0V714H261Q359 714 429 675T537 558T575 367Q575 248 535 166T422 42T249 0H43ZM246 133Q332 133 373 190T414 363Q414 438 397 486T344 558T257 581H196V133H246Z" />
<glyph unicode="E" horiz-adv-x="600" d="M71 0V714H535V577H225V437H521V301H225V137H535V0H71Z" />
<glyph unicode="F" horiz-adv-x="600" d="M71 0V714H535V577H225V409H521V272H225V0H71Z" />
<glyph unicode="G" horiz-adv-x="600" d="M348 -10Q238 -10 167 33T60 157T25 349Q25 467 62 550T173 679T352 724Q411 724 462 712T553 680L505 552Q473 569 438 578T368 587Q307 587 266 560T204 481T183 353Q183 286 200 235T254 155T346 127Q363 127 380 129T414
136V281H323V409H557V32Q503 9 453 0T348 -10Z" />
<glyph unicode="H" horiz-adv-x="600" d="M43 0V714H202V441H398V714H557V0H398V304H202V0H43Z" />
<glyph unicode="I" horiz-adv-x="600" d="M81 0V112L223 128V586L81 602V714H519V602L375 586V128L519 112V0H81Z" />
<glyph unicode="J" horiz-adv-x="600" d="M241 -10Q205 -10 162 -6T76 9V147Q125 136 163 132T223 128Q269 128 296 143T334 189T346 266V714H502V256Q502 166 476 107T392 19T241 -10Z" />
<glyph unicode="K" horiz-adv-x="600" d="M43 0V714H198V379Q211 407 224 430T251 476L398 714H570L358 395L566 0H390L252 278L198 228V0H43Z" />
<glyph unicode="L" horiz-adv-x="600" d="M83 0V714H242V140H535V0H83Z" />
<glyph unicode="M" horiz-adv-x="600" d="M35 0V714H245L297 309H300L359 714H564V0H425V162Q425 184 427 220T431 298T437 384T443 466T448 532T450 568H445L376 163H224L151 569H145Q146 558 148 531T153 465T160 383T166 297T171 218T173 157V0H35Z" />
<glyph unicode="N" horiz-adv-x="600" d="M43 0V714H258L422 147H425Q423 182 421 213T418 272T416 323T415 365V714H557V0H344L178 567H174Q177 524 179 491T182 431T184 383T185 343V0H43Z" />
<glyph unicode="O" horiz-adv-x="600" d="M300 -10Q229 -10 177 14T92 86T42 202T25 358Q25 476 55 558T145 683T300 726Q371 726 423 701T508 629T558 513T575 358Q575 271 559 203T509 87T423 15T300 -10ZM300 127Q341 127 365 152T401 229T413 359Q413 474
388 531T300 589Q260 589 235 564T199 488T187 358Q187 279 198 228T234 152T300 127Z" />
<glyph unicode="P" horiz-adv-x="600" d="M71 0V714H320Q443 714 504 656T565 489Q565 420 540 365T459 278T313 246H222V0H71ZM296 379Q332 379 356 391T393 427T406 485Q406 531 383 556T307 581H222V379H296Z" />
<glyph unicode="Q" horiz-adv-x="600" d="M396 -180L296 27L421 93L564 -180H396ZM300 -10Q229 -10 177 14T92 86T42 202T25 358Q25 476 55 558T145 683T300 726Q371 726 423 701T508 629T558 513T575 358Q575 271 559 203T509 87T423 15T300 -10ZM300 127Q341
127 365 152T401 229T413 359Q413 474 388 531T300 589Q260 589 235 564T199 488T187 358Q187 279 198 228T234 152T300 127Z" />
<glyph unicode="R" horiz-adv-x="600" d="M71 0V714H277Q364 714 421 690T508 618T538 503Q538 456 525 419T485 354T422 306L590 0H421L288 264H225V0H71ZM275 397Q308 397 332 407T370 439T383 493Q383 539 357 560T276 581H225V397H275Z" />
<glyph unicode="S" horiz-adv-x="600" d="M275 -10Q220 -10 169 0T65 34V183Q124 151 177 138T279 124Q312 124 336 130T373 151T386 193Q386 222 370 238T322 271T244 312Q194 340 157 369T99 437T79 531Q79 594 106 637T186 702T318 724Q374 724 431 713T541
676L491 551Q443 573 403 581T330 590Q302 590 282 583T252 562T241 523Q241 499 253 484T294 452T372 411Q424 385 464 358T526 294T549 199Q549 152 533 114T483 48T398 5T275 -10Z" />
<glyph unicode="T" horiz-adv-x="600" d="M220 0V577H25V714H575V577H379V0H220Z" />
<glyph unicode="U" horiz-adv-x="600" d="M299 -10Q217 -10 160 20T73 108T43 250V714H202V270Q202 218 212 187T244 143T299 129Q333 129 355 143T387 188T398 271V714H557V253Q557 172 528 113T442 22T299 -10Z" />
<glyph unicode="V" horiz-adv-x="600" d="M204 0L8 714H167L267 294Q272 276 278 247T290 187T299 135H307Q310 157 315 187T326 246T336 294L432 714H592L397 0H204Z" />
<glyph unicode="W" horiz-adv-x="600" d="M53 0L8 714H142Q150 613 155 548T162 441T165 370T166 312Q166 296 166 279T166 243T165 206T165 168T164 130H170Q173 155 177 186T185 250T193 310T200 355L229 549H372L399 354Q402 332 406 303T414 243T423 182T430
129H437Q436 153 436 176T435 221T434 263T433 302T433 336Q433 357 433 378T435 425T439 489T446 581T455 714H592L547 0H352L324 197Q321 222 317 255T309 323T302 385H298Q295 358 291 323T283 255T276 197L250 0H53Z" />
<glyph unicode="X" horiz-adv-x="600" d="M18 0L225 368L32 714H195L300 510L401 714H567L374 369L582 0H414L299 228L181 0H18Z" />
<glyph unicode="Y" horiz-adv-x="600" d="M221 0V277L18 714H185L301 434L416 714H582L380 277V0H221Z" />
<glyph unicode="Z" horiz-adv-x="600" d="M71 0V108L360 581H92V714H535V606L249 137H539V0H71Z" />
<glyph unicode="[" horiz-adv-x="600" d="M225 -165V727H472V615H363V-52H472V-165H225Z" />
<glyph unicode="\" horiz-adv-x="600" d="M509 -7H370L91 721H230L509 -7Z" />
<glyph unicode="]" horiz-adv-x="600" d="M375 727V-165H128V-53H237V614H128V727H375Z" />
<glyph unicode="^" horiz-adv-x="600" d="M35 256L254 716H330L565 256H434L294 534L165 256H35Z" />
<glyph unicode="_" horiz-adv-x="600" d="M0 -185V-55H600V-185H0Z" />
<glyph unicode="`" horiz-adv-x="600" d="M310 606Q294 618 271 638T224 680T177 722T142 757V766H318Q330 745 349 717T387 663T419 619V606H310Z" />
<glyph unicode="a" horiz-adv-x="600" d="M225 -10Q135 -10 90 37T45 161Q45 224 72 262T150 320T271 341L389 345V366Q389 400 365 417T288 434Q255 434 215 426T132 401L82 510Q132 535 186 547T299 559Q419 559 479 512T540 370V0H420L399 68H395Q369 36 340
19T281 -4T225 -10ZM273 114Q304 114 330 125T373 158T389 212V249L317 247Q277 247 250 239T210 216T196 175Q196 143 217 129T273 114Z" />
<glyph unicode="b" horiz-adv-x="600" d="M359 -10Q316 -10 276 6T206 58H195L170 0H50V760H206V585Q206 572 205 545T200 477H206Q234 520 275 539T364 559Q418 559 456 537T518 474T553 384T565 277Q565 219 553 167T517 76T453 13T359 -10ZM304 119Q353 119
379 158T405 277Q405 356 379 393T304 430Q259 430 233 396T206 277Q206 192 232 156T304 119Z" />
<glyph unicode="c" horiz-adv-x="600" d="M333 -10Q242 -10 183 21T95 115T65 268Q65 361 95 425T186 524T340 559Q385 559 433 550T525 521L478 400Q435 417 404 422T350 428Q308 428 280 411T238 360T223 275Q223 221 239 187T284 137T354 121Q384 121 423 130T506
169V30Q463 8 421 -1T333 -10Z" />
<glyph unicode="d" horiz-adv-x="600" d="M235 -10Q181 -10 143 12T82 74T47 165T35 274Q35 354 57 418T125 521T245 559Q278 559 306 551T358 524T401 478H406Q402 504 399 524T395 562T394 601V760H550V0H430L399 71H392Q373 43 349 25T296 -1T235 -10ZM300
119Q356 119 381 155T407 257V272Q407 319 398 354T368 410T305 430Q251 430 224 389T196 269Q196 191 223 155T300 119Z" />
<glyph unicode="e" horiz-adv-x="600" d="M344 -10Q247 -10 181 23T80 121T45 276Q45 362 75 426T164 524T307 559Q386 559 441 528T525 439T554 301V227H197Q199 190 221 166T279 129T360 116Q402 116 446 126T536 157V29Q489 7 439 -1T344 -10ZM411 334Q411
367 398 391T362 428T308 441Q262 441 234 413T200 334H411Z" />
<glyph unicode="f" horiz-adv-x="600" d="M206 0V420H57V512L206 549V581Q206 642 230 682T304 744T429 765Q466 765 505 760T585 742L546 618Q519 627 493 630T452 633Q406 633 385 616T364 563V549H536V420H364V0H206Z" />
<glyph unicode="g" horiz-adv-x="600" d="M255 -245Q213 -245 167 -239T71 -213V-73Q124 -94 171 -104T261 -113Q328 -113 361 -88T394 -5V4Q394 21 395 36T396 67H392Q364 24 327 7T243 -10Q145 -10 90 65T35 274Q35 412 91 486T241 560Q290 560 328 540T395
479H398L433 549H550V11Q550 -72 519 -129T423 -215T255 -245ZM301 119Q328 119 347 128T378 155T397 198T403 255V272Q403 326 393 361T359 413T299 430Q246 430 220 390T194 273Q194 200 220 160T301 119Z" />
<glyph unicode="h" horiz-adv-x="600" d="M50 0V760H209V623Q209 587 207 551T203 479H212Q230 506 251 524T300 550T366 559Q459 559 507 506T555 357V0H396V311Q396 374 375 402T310 430Q276 430 254 413T220 356T209 250V0H50Z" />
<glyph unicode="i" horiz-adv-x="600" d="M51 0V106L235 129V420L85 436V549H393V129L555 106V0H51ZM314 605Q267 605 243 626T219 691Q219 733 242 754T315 776Q363 776 386 755T410 692Q410 651 387 628T314 605Z" />
<glyph unicode="j" horiz-adv-x="600" d="M201 -245Q163 -245 120 -240T35 -222V-92Q61 -99 86 -103T134 -109T173 -111Q213 -111 235 -99T268 -59T278 18V420L116 435V549H437V-16Q437 -132 381 -188T201 -245ZM347 605Q301 605 277 626T252 691Q252 733 276
754T348 776Q397 776 420 755T443 692Q443 651 420 628T347 605Z" />
<glyph unicode="k" horiz-adv-x="600" d="M51 0V760H210V433Q210 411 209 387T206 339T201 293H204Q220 316 236 339T272 388L398 549H578L393 324L590 0H417L290 219L210 155V0H51Z" />
<glyph unicode="l" horiz-adv-x="600" d="M51 0V105L234 129V631L88 653V760H392V129L555 105V0H51Z" />
<glyph unicode="m" horiz-adv-x="600" d="M25 0V549H133L150 479H158Q168 506 181 524T214 550T261 559Q306 559 328 535T357 467H362Q381 511 405 535T474 559Q518 559 539 536T567 467T575 356V0H439V371Q439 391 436 404T427 423T407 430Q391 430 383 422T371
396T367 353V0H233V371Q233 391 231 404T221 423T200 430Q185 430 176 422T164 396T161 354V0H25Z" />
<glyph unicode="n" horiz-adv-x="600" d="M50 0V549H170L193 479H202Q219 506 243 523T298 550T368 559Q461 559 508 507T555 357V0H396V311Q396 373 375 401T312 430Q256 430 233 382T209 250V0H50Z" />
<glyph unicode="o" horiz-adv-x="600" d="M302 -10Q238 -10 188 10T104 68T53 158T35 276Q35 360 65 424T155 523T298 559Q381 559 441 525T533 426T565 271Q565 209 548 157T498 68T416 11T302 -10ZM301 118Q338 118 361 137T396 191T407 274Q407 321 396 356T362
411T301 431Q245 431 219 388T193 274Q193 226 204 191T240 137T301 118Z" />
<glyph unicode="p" horiz-adv-x="600" d="M50 -240V549H167L198 478H206Q225 506 249 524T303 550T364 559Q418 559 456 537T518 475T553 385T565 278Q565 190 540 125T469 25T357 -10Q329 -10 302 -3T251 19T206 58H198Q202 34 204 10T206 -25V-240H50ZM308 119Q357
119 380 158T403 277Q403 352 381 391T307 430Q259 430 233 395T206 291V276Q206 195 233 157T308 119Z" />
<glyph unicode="q" horiz-adv-x="600" d="M394 -11Q394 -1 394 9T396 34T400 71H394Q370 31 328 11T236 -10Q182 -10 144 12T82 74T47 165T35 274Q35 330 46 381T81 473T144 536T241 559Q286 559 328 541T401 479H406L433 549H550V-240H394V-11ZM298 119Q355 119
379 158T404 254V272Q404 354 377 392T299 430Q248 430 223 390T197 272Q197 197 221 158T298 119Z" />
<glyph unicode="r" horiz-adv-x="600" d="M36 0V106L180 129V420L61 436V549H294L318 458H326Q347 503 386 531T484 559Q500 559 526 557T584 543L544 394Q529 401 506 404T464 408Q422 408 393 390T348 337T332 255V129L480 106V0H36Z" />
<glyph unicode="s" horiz-adv-x="600" d="M268 -10Q219 -10 171 -3T75 22V165Q123 144 176 131T281 117Q316 117 339 126T363 156Q363 174 347 184T302 206T232 233Q186 252 153 272T101 322T82 396Q82 452 110 488T190 542T310 559Q361 559 413 549T519 517L470
396Q427 415 387 424T309 433Q277 433 259 425T240 399Q240 383 253 374T293 355T361 329Q409 312 445 292T501 241T522 160Q522 106 495 68T411 10T268 -10Z" />
<glyph unicode="t" horiz-adv-x="600" d="M381 -10Q307 -10 261 12T193 79T171 195V420H40V508L185 549L210 680H329V549H528V420H329V215Q329 174 343 154T378 128T420 122Q444 122 468 126T532 140V15Q491 1 455 -4T381 -10Z" />
<glyph unicode="u" horiz-adv-x="600" d="M230 -10Q139 -10 92 42T45 191V549H204V236Q204 180 222 150T288 119Q331 119 353 140T383 198T391 283V549H550V0H430L407 70H398Q381 44 357 26T301 -1T230 -10Z" />
<glyph unicode="v" horiz-adv-x="600" d="M213 0L15 549H185L276 236Q285 207 290 185T300 136H303Q307 162 312 183T325 235L417 549H585L383 0H213Z" />
<glyph unicode="w" horiz-adv-x="600" d="M73 0L2 549H144L162 273Q164 254 165 232T167 186T170 137H175Q178 162 180 182T186 221T193 261L236 475H367L408 260Q412 241 415 222T421 182T427 137H432Q434 161 435 184T437 230T440 272L459 549H599L528 0H350L318
191Q312 226 309 254T302 311H297Q294 282 290 254T280 191L247 0H73Z" />
<glyph unicode="x" horiz-adv-x="600" d="M15 0L197 280L24 549H210L300 388L395 549H581L403 279L585 0H398L300 170L203 0H15Z" />
<glyph unicode="y" horiz-adv-x="600" d="M129 -245Q111 -245 93 -243T54 -237V-109Q68 -112 81 -113T106 -115Q137 -115 159 -105T198 -74T224 -25L235 5L15 549H187L287 246Q293 226 298 204T309 153H312Q315 171 318 188T325 220T332 246L418 549H585L375 -41Q350
-109 317 -154T237 -222T129 -245Z" />
<glyph unicode="z" horiz-adv-x="600" d="M60 0V95L333 424H75V549H531V445L262 125H540V0H60Z" />
<glyph unicode="{" horiz-adv-x="600" d="M469 -165Q382 -165 333 -150T263 -101T243 -6V131Q243 174 214 195T131 217V339Q185 339 214 360T243 425V563Q243 620 261 654T329 705T469 721V602Q444 601 425 597T394 580T382 541V400Q382 346 357 318T280 281V275Q333
267 357 239T382 158V16Q382 -21 404 -32T469 -46V-165Z" />
<glyph unicode="|" horiz-adv-x="600" d="M238 -240V760H361V-240H238Z" />
<glyph unicode="}" horiz-adv-x="600" d="M131 721Q219 721 268 706T337 657T357 562V425Q357 382 386 361T469 339V217Q416 217 387 197T357 131V-7Q357 -63 339 -98T272 -148T131 -165V-46Q157 -45 176 -41T206 -24T218 15V156Q218 210 243 238T320 275V281Q268
289 243 317T218 398V540Q218 577 196 589T131 602V721Z" />
<glyph unicode="~" horiz-adv-x="600" d="M56 265Q56 305 63 340T86 402T128 443T194 458Q218 458 236 452T274 432T325 391Q357 363 373 353T406 342Q431 342 444 369T458 458H537Q537 414 530 379T507 318T468 279T406 265Q382 265 362 271T320 291T271 330Q239
360 224 370T192 381Q164 381 149 354T134 265H56Z" />
<glyph unicode="&#xa0;" horiz-adv-x="600" />
<glyph unicode="&#xa1;" horiz-adv-x="600" d="M369 285L392 -185H203L226 285H369ZM298 540Q341 540 368 518T395 449Q395 402 368 381T298 359Q256 359 230 381T203 449Q203 495 230 517T298 540Z" />
<glyph unicode="&#xa2;" horiz-adv-x="600" d="M296 84Q220 92 168 126T90 219T61 362Q63 446 91 506T171 600T296 643V724H383V648Q426 645 469 636T539 610L496 489Q468 504 431 512T363 520Q317 520 284 504T233 453T215 363Q215 308 232 275T283 225T362 209Q403
209 447 220T524 253V122Q499 107 461 97T383 82V-10H296V84Z" />
<glyph unicode="&#xa3;" horiz-adv-x="600" d="M76 131Q102 145 119 159T146 196T155 252V310H80V425H155V515Q155 623 215 673T373 724Q420 724 461 714T540 684L496 562Q466 576 443 583T390 590Q357 590 334 573T311 514V425H467V310H311V253Q311 224 301 201T274
163T236 137H544V0H76V131Z" />
<glyph unicode="&#xa4;" horiz-adv-x="600" d="M400 197Q378 185 352 178T299 170Q270 170 244 177T196 196L132 133L56 209L121 273Q107 297 101 322T94 375Q94 402 101 427T121 477L55 542L132 619L197 554Q220 567 246 574T299 581Q326 581 351 574T400 552L466
619L545 544L478 478Q491 456 498 430T505 375Q505 347 498 322T478 272L542 208L466 132L400 197ZM299 282Q327 282 348 294T382 327T395 375Q395 402 383 423T350 457T299 470Q270 470 249 458T217 423T205 375Q205 347 217 327T250 294T299 282Z" />
<glyph unicode="&#xa5;" horiz-adv-x="600" d="M224 0V105H82V199H224V265H82V359H198L20 714H185L300 446L415 714H580L400 359H517V265H376V199H517V105H376V0H224Z" />
<glyph unicode="&#xa6;" horiz-adv-x="600" d="M238 359V758H361V359H238ZM238 -227V173H361V-227H238Z" />
<glyph unicode="&#xa7;" horiz-adv-x="600" d="M276 -10Q223 -10 179 0T99 31V141Q125 128 156 116T219 97T274 90Q316 90 335 104T355 141Q355 156 348 167T321 189T261 218Q207 241 170 264T115 316T97 386Q97 427 120 457T177 507Q142 530 124 559T106 624Q106
689 161 727T311 765Q362 765 407 755T495 725L449 624Q415 642 380 653T313 665Q281 665 264 655T247 623Q247 609 257 597T288 575T342 550Q397 529 433 505T486 452T504 384Q504 342 485 313T432 261Q463 240 479 212T496 147Q496 77 438 34T276 -10ZM343 307Q354
317 363 332T372 366Q372 386 363 401T330 431T266 462Q251 455 240 440T229 404Q229 387 239 373T269 346T321 317L343 307Z" />
<glyph unicode="&#xa8;" horiz-adv-x="600" d="M421 609Q387 609 365 629T343 687Q343 727 365 746T421 765Q455 765 477 746T499 687Q499 649 477 629T421 609ZM181 609Q148 609 126 628T104 687Q104 727 126 746T181 765Q215 765 237 746T260 687Q260 649 238
629T181 609Z" />
<glyph unicode="&#xa9;" horiz-adv-x="600" d="M299 78Q213 78 151 115T56 216T23 355Q23 437 59 499T158 595T300 630Q382 630 444 595T541 497T577 353Q577 270 541 208T442 112T299 78ZM306 184Q231 184 190 229T149 355Q149 435 190 480T306 525Q332 525 357
519T409 500L382 433Q364 443 346 447T310 452Q276 452 255 427T234 353Q234 305 253 282T312 258Q332 258 354 263T396 278V204Q375 195 354 190T306 184ZM299 146Q359 146 404 172T475 246T501 356Q501 421 475 467T403 538T300 563Q239 563 194 536T124 461T99
355Q99 292 124 245T195 172T299 146Z" />
<glyph unicode="&#xaa;" horiz-adv-x="600" d="M255 365Q204 365 172 392T140 473Q140 515 160 538T217 573T309 587L356 589V596Q356 619 341 630T297 642Q274 642 250 636T197 616L165 685Q195 701 232 711T313 722Q388 722 423 687T459 588V371H391L374 426Q352
397 324 381T255 365ZM285 441Q317 441 336 462T356 513V529L310 526Q269 523 257 509T244 478Q244 460 254 451T285 441Z" />
<glyph unicode="&#xab;" horiz-adv-x="600" d="M443 45L274 270V284L443 510L554 450L436 277L554 105L443 45ZM215 45L46 270V284L215 510L326 450L207 277L326 105L215 45Z" />
<glyph unicode="&#xac;" horiz-adv-x="600" d="M403 118V294H68V412H522V118H403Z" />
<glyph unicode="&#xad;" horiz-adv-x="600" d="M150 200V337H450V200H150Z" />
<glyph unicode="&#xae;" horiz-adv-x="600" d="M297 76Q212 76 151 114T56 215T23 355Q23 437 59 498T158 595T300 630Q381 630 443 595T540 496T576 352Q576 268 540 206T440 110T297 76ZM298 145Q359 145 404 171T474 245T500 356Q500 420 474 466T402 537T299
562Q238 562 193 535T124 460T99 353Q99 292 124 245T194 172T298 145ZM190 202V512H289Q351 512 381 489T412 416Q412 385 400 364T363 330L426 202H346L296 316H264V202H190ZM284 372Q307 372 320 382T334 415Q334 436 323 444T285 452H264V372H284Z" />
<glyph unicode="&#xaf;" horiz-adv-x="600" d="M143 623V729H457V623H143Z" />
<glyph unicode="&#xb0;" horiz-adv-x="600" d="M300 400Q253 400 216 421T158 479T136 562Q136 609 158 645T218 703T300 724Q346 724 383 703T442 646T465 562Q465 516 444 479T386 421T300 400ZM300 495Q332 495 349 515T367 562Q367 593 348 611T300 630Q272
630 253 612T234 562Q234 533 252 514T300 495Z" />
<glyph unicode="&#xb1;" horiz-adv-x="600" d="M242 159V338H71V455H242V637H361V455H530V338H361V159H242ZM70 0V118H530V0H70Z" />
<glyph unicode="&#xb2;" horiz-adv-x="600" d="M154 416V507L247 602Q272 627 290 645T318 681T328 718Q328 741 317 750T284 760Q262 760 243 750T203 717L148 791Q173 818 213 836T306 855Q370 855 405 824T441 731Q441 691 426 661T381 602T311 534L288 511H462V416H154Z"
/>
<glyph unicode="&#xb3;" horiz-adv-x="600" d="M286 408Q247 408 213 416T151 441V543Q179 522 212 512T280 501Q312 501 327 512T343 546Q343 566 329 578T273 591H226V675H264Q304 675 319 688T334 721Q334 739 323 751T288 763Q264 763 242 755T197 726L148
798Q178 823 216 838T300 853Q363 853 401 824T439 745Q439 709 422 683T367 642V637Q410 626 431 599T452 531Q452 474 408 441T286 408Z" />
<glyph unicode="&#xb4;" horiz-adv-x="600" d="M212 619Q229 642 247 667T283 718T313 766H489V757Q471 738 441 710T379 654T321 606H212V619Z" />
<glyph unicode="&#xb5;" horiz-adv-x="600" d="M45 -240V227H204V-240H45ZM230 -10Q139 -10 92 42T45 191V549H204V236Q204 180 222 150T288 119Q331 119 353 140T383 198T391 283V549H550V0H430L407 70H398Q381 44 357 26T301 -1T230 -10Z" />
<glyph unicode="&#xb6;" horiz-adv-x="600" d="M321 273Q308 269 294 267T260 264Q188 264 138 289T62 368T35 509Q35 599 63 654T144 734T274 760H555V-127H473V671H403V-127H321V273Z" />
<glyph unicode="&#xb7;" horiz-adv-x="600" d="M301 256Q259 256 232 278T205 346Q205 393 231 414T301 436Q343 436 369 414T395 346Q395 302 369 279T301 256Z" />
<glyph unicode="&#xb8;" horiz-adv-x="600" d="M273 -240Q252 -240 231 -237T193 -229V-147Q207 -151 221 -153T248 -156Q269 -156 282 -148T295 -122Q295 -102 278 -92T223 -78L257 5H337L324 -34Q362 -42 386 -65T411 -132Q411 -180 378 -210T273 -240Z" />
<glyph unicode="&#xb9;" horiz-adv-x="600" d="M268 613Q268 636 269 668T272 724Q264 718 255 712T238 700L189 669L140 750L291 844H374V416H268V613ZM168 416V492L290 503H357L470 492V416H168Z" />
<glyph unicode="&#xba;" horiz-adv-x="600" d="M298 365Q228 365 183 412T138 544Q138 629 181 675T300 722Q346 722 382 701T440 641T462 544Q462 458 418 412T298 365ZM299 449Q329 449 342 473T356 543Q356 575 350 596T332 628T299 639Q269 639 255 615T241
544Q241 497 255 473T299 449Z" />
<glyph unicode="&#xbb;" horiz-adv-x="600" d="M157 509L326 284V270L157 44L46 104L164 277L46 449L157 509ZM385 509L554 284V270L385 44L274 104L393 277L274 449L385 509Z" />
<glyph unicode="&#xbc;" horiz-adv-x="600" d="M34 95L457 588H577L155 95H34ZM32 383V448L134 456H173L266 448V383H32ZM441 0V57H299V123L434 332H527V127H579V57H527V0H441ZM372 127H441V192Q441 207 442 219T443 245Q439 231 431 218T418 197L372 127ZM109
532Q109 551 110 575T112 619Q104 613 97 608T83 598L48 578L9 646L125 714H194V383H109V532Z" />
<glyph unicode="&#xbd;" horiz-adv-x="600" d="M34 95L457 588H577L155 95H34ZM32 383V448L134 456H173L266 448V383H32ZM348 0V72L425 153Q448 176 460 189T477 213T482 235Q482 249 474 257T448 266Q432 266 418 258T387 234L343 290Q363 312 394 326T465 341Q519
341 546 315T573 246Q573 219 562 196T529 150T475 96L453 76H587V0H348ZM109 532Q109 551 110 575T112 619Q104 613 97 608T83 598L48 578L9 646L125 714H194V383H109V532Z" />
<glyph unicode="&#xbe;" horiz-adv-x="600" d="M34 95L457 588H577L155 95H34ZM441 0V57H299V123L434 332H527V127H579V57H527V0H441ZM372 127H441V192Q441 207 442 219T443 245Q439 231 431 218T418 197L372 127ZM144 378Q114 378 88 384T40 403V484Q62 468 87
461T137 453Q163 453 175 461T187 488Q187 502 176 510T135 519H96V586H127Q157 586 168 595T180 620Q180 634 172 643T144 652Q126 652 110 645T75 623L35 681Q59 701 88 712T154 723Q205 723 234 701T264 640Q264 611 251 591T212 559V556Q274 539 274 476Q274
430 239 404T144 378Z" />
<glyph unicode="&#xbf;" horiz-adv-x="600" d="M373 246Q373 214 364 189T335 141T282 96Q255 78 240 62T217 30T210 -6Q210 -33 229 -48T281 -63Q316 -63 353 -50T441 -11L501 -130Q445 -161 389 -178T269 -195Q204 -195 155 -174T79 -113T51 -18Q51 24 62 55T97
112T160 165Q185 182 200 195T221 224T228 258V285H373V246ZM299 540Q343 540 369 518T396 450Q396 402 370 381T299 359Q258 359 232 381T205 450Q205 495 231 517T299 540Z" />
<glyph unicode="&#xc0;" horiz-adv-x="600" d="M8 0L197 717H402L592 0H434L333 450Q328 474 322 501T311 554T301 602Q297 580 292 554T281 501T269 450L162 0H8ZM174 163L200 293H399L415 163H174ZM293 771Q277 783 254 803T207 845T160 887T125 922V931H301Q313
910 332 882T370 828T402 784V771H293Z" />
<glyph unicode="&#xc1;" horiz-adv-x="600" d="M8 0L197 717H402L592 0H434L333 450Q328 474 322 501T311 554T301 602Q297 580 292 554T281 501T269 450L162 0H8ZM174 163L200 293H399L415 163H174ZM221 784Q238 807 256 832T292 883T322 931H498V922Q480 903
450 875T388 819T330 771H221V784Z" />
<glyph unicode="&#xc2;" horiz-adv-x="600" d="M8 0L197 717H402L592 0H434L333 450Q328 474 322 501T311 554T301 602Q297 580 292 554T281 501T269 450L162 0H8ZM174 163L200 293H399L415 163H174ZM111 784Q128 803 149 829T190 883T222 931H379Q392 909 410
883T449 832T488 784V771H390Q368 786 346 805T300 850Q276 825 254 806T211 771H111V784Z" />
<glyph unicode="&#xc3;" horiz-adv-x="600" d="M8 0L197 717H402L592 0H434L333 450Q328 474 322 501T311 554T301 602Q297 580 292 554T281 501T269 450L162 0H8ZM174 163L200 293H399L415 163H174ZM105 770Q107 803 114 832T134 882T168 915T215 927Q237 927
258 920T299 903T337 886T374 878Q393 878 401 891T413 928H495Q491 849 460 810T384 771Q363 771 342 778T299 795T259 812T223 820Q207 820 199 809T186 770H105Z" />
<glyph unicode="&#xc4;" horiz-adv-x="600" d="M8 0L197 717H402L592 0H434L333 450Q328 474 322 501T311 554T301 602Q297 580 292 554T281 501T269 450L162 0H8ZM174 163L200 293H399L415 163H174ZM419 774Q385 774 363 794T341 852Q341 892 363 911T419 930Q453
930 475 911T497 852Q497 814 475 794T419 774ZM179 774Q146 774 124 793T102 852Q102 892 124 911T179 930Q213 930 235 911T258 852Q258 814 236 794T179 774Z" />
<glyph unicode="&#xc5;" horiz-adv-x="600" d="M8 0L197 717H402L592 0H434L333 450Q328 474 322 501T311 554T301 602Q297 580 292 554T281 501T269 450L162 0H8ZM174 163L200 293H399L415 163H174ZM299 770Q244 770 210 802T176 889Q176 943 210 975T299 1008Q352
1008 387 976T423 890Q423 836 388 803T299 770ZM299 846Q318 846 330 857T343 889Q343 909 331 921T299 933Q281 933 268 921T255 889Q255 870 266 858T299 846Z" />
<glyph unicode="&#xc6;" horiz-adv-x="600" d="M8 0L175 714H579V578H452V438H562V302H452V136H579V0H310V578H281L159 0H8ZM171 164L197 300H335L339 164H171Z" />
<glyph unicode="&#xc7;" horiz-adv-x="600" d="M343 -10Q242 -10 177 33T78 157T45 345Q45 434 67 504T133 623T240 698T383 724Q433 724 475 714T562 684L515 552Q479 570 446 577T382 584Q333 584 299 568T245 520T215 445T206 348Q206 272 223 224T276 152T369
129Q407 129 448 139T535 173V29Q490 9 441 0T343 -10ZM316 -240Q295 -240 274 -237T236 -229V-147Q250 -151 264 -153T291 -156Q312 -156 325 -148T338 -122Q338 -102 321 -92T266 -78L300 5H380L367 -34Q405 -42 429 -65T454 -132Q454 -180 421 -210T316 -240Z"
/>
<glyph unicode="&#xc8;" horiz-adv-x="600" d="M71 0V714H535V577H225V437H521V301H225V137H535V0H71ZM298 771Q282 783 259 803T212 845T165 887T130 922V931H306Q318 910 337 882T375 828T407 784V771H298Z" />
<glyph unicode="&#xc9;" horiz-adv-x="600" d="M71 0V714H535V577H225V437H521V301H225V137H535V0H71ZM225 784Q242 807 260 832T296 883T326 931H502V922Q484 903 454 875T392 819T334 771H225V784Z" />
<glyph unicode="&#xca;" horiz-adv-x="600" d="M71 0V714H535V577H225V437H521V301H225V137H535V0H71ZM116 784Q133 803 154 829T195 883T227 931H384Q397 909 415 883T454 832T493 784V771H395Q373 786 351 805T305 850Q281 825 259 806T216 771H116V784Z" />
<glyph unicode="&#xcb;" horiz-adv-x="600" d="M71 0V714H535V577H225V437H521V301H225V137H535V0H71ZM423 774Q389 774 367 794T345 852Q345 892 367 911T423 930Q457 930 479 911T501 852Q501 814 479 794T423 774ZM183 774Q150 774 128 793T106 852Q106 892
128 911T183 930Q217 930 239 911T262 852Q262 814 240 794T183 774Z" />
<glyph unicode="&#xcc;" horiz-adv-x="600" d="M81 0V112L223 128V586L81 602V714H519V602L375 586V128L519 112V0H81ZM293 771Q277 783 254 803T207 845T160 887T125 922V931H301Q313 910 332 882T370 828T402 784V771H293Z" />
<glyph unicode="&#xcd;" horiz-adv-x="600" d="M81 0V112L223 128V586L81 602V714H519V602L375 586V128L519 112V0H81ZM221 784Q238 807 256 832T292 883T322 931H498V922Q480 903 450 875T388 819T330 771H221V784Z" />
<glyph unicode="&#xce;" horiz-adv-x="600" d="M81 0V112L223 128V586L81 602V714H519V602L375 586V128L519 112V0H81ZM111 784Q128 803 149 829T190 883T222 931H379Q392 909 410 883T449 832T488 784V771H390Q368 786 346 805T300 850Q276 825 254 806T211 771H111V784Z"
/>
<glyph unicode="&#xcf;" horiz-adv-x="600" d="M81 0V112L223 128V586L81 602V714H519V602L375 586V128L519 112V0H81ZM419 774Q385 774 363 794T341 852Q341 892 363 911T419 930Q453 930 475 911T497 852Q497 814 475 794T419 774ZM179 774Q146 774 124 793T102
852Q102 892 124 911T179 930Q213 930 235 911T258 852Q258 814 236 794T179 774Z" />
<glyph unicode="&#xd0;" horiz-adv-x="600" d="M0 287V419H295V287H0ZM43 0V714H261Q359 714 429 675T537 558T575 367Q575 248 535 166T422 42T249 0H43ZM246 133Q332 133 373 190T414 363Q414 438 397 486T344 558T257 581H196V133H246Z" />
<glyph unicode="&#xd1;" horiz-adv-x="600" d="M43 0V714H258L422 147H425Q423 182 421 213T418 272T416 323T415 365V714H557V0H344L178 567H174Q177 524 179 491T182 431T184 383T185 343V0H43ZM110 770Q112 803 119 832T139 882T173 915T220 927Q242 927 263
920T304 903T342 886T379 878Q398 878 406 891T418 928H500Q496 849 465 810T389 771Q368 771 347 778T304 795T264 812T228 820Q212 820 204 809T191 770H110Z" />
<glyph unicode="&#xd2;" horiz-adv-x="600" d="M300 -10Q229 -10 177 14T92 86T42 202T25 358Q25 476 55 558T145 683T300 726Q371 726 423 701T508 629T558 513T575 358Q575 271 559 203T509 87T423 15T300 -10ZM300 127Q341 127 365 152T401 229T413 359Q413
474 388 531T300 589Q260 589 235 564T199 488T187 358Q187 279 198 228T234 152T300 127ZM293 771Q277 783 254 803T207 845T160 887T125 922V931H301Q313 910 332 882T370 828T402 784V771H293Z" />
<glyph unicode="&#xd3;" horiz-adv-x="600" d="M300 -10Q229 -10 177 14T92 86T42 202T25 358Q25 476 55 558T145 683T300 726Q371 726 423 701T508 629T558 513T575 358Q575 271 559 203T509 87T423 15T300 -10ZM300 127Q341 127 365 152T401 229T413 359Q413
474 388 531T300 589Q260 589 235 564T199 488T187 358Q187 279 198 228T234 152T300 127ZM221 784Q238 807 256 832T292 883T322 931H498V922Q480 903 450 875T388 819T330 771H221V784Z" />
<glyph unicode="&#xd4;" horiz-adv-x="600" d="M300 -10Q229 -10 177 14T92 86T42 202T25 358Q25 476 55 558T145 683T300 726Q371 726 423 701T508 629T558 513T575 358Q575 271 559 203T509 87T423 15T300 -10ZM300 127Q341 127 365 152T401 229T413 359Q413
474 388 531T300 589Q260 589 235 564T199 488T187 358Q187 279 198 228T234 152T300 127ZM111 784Q128 803 149 829T190 883T222 931H379Q392 909 410 883T449 832T488 784V771H390Q368 786 346 805T300 850Q276 825 254 806T211 771H111V784Z" />
<glyph unicode="&#xd5;" horiz-adv-x="600" d="M300 -10Q229 -10 177 14T92 86T42 202T25 358Q25 476 55 558T145 683T300 726Q371 726 423 701T508 629T558 513T575 358Q575 271 559 203T509 87T423 15T300 -10ZM300 127Q341 127 365 152T401 229T413 359Q413
474 388 531T300 589Q260 589 235 564T199 488T187 358Q187 279 198 228T234 152T300 127ZM105 770Q107 803 114 832T134 882T168 915T215 927Q237 927 258 920T299 903T337 886T374 878Q393 878 401 891T413 928H495Q491 849 460 810T384 771Q363 771 342 778T299
795T259 812T223 820Q207 820 199 809T186 770H105Z" />
<glyph unicode="&#xd6;" horiz-adv-x="600" d="M300 -10Q229 -10 177 14T92 86T42 202T25 358Q25 476 55 558T145 683T300 726Q371 726 423 701T508 629T558 513T575 358Q575 271 559 203T509 87T423 15T300 -10ZM300 127Q341 127 365 152T401 229T413 359Q413
474 388 531T300 589Q260 589 235 564T199 488T187 358Q187 279 198 228T234 152T300 127ZM419 774Q385 774 363 794T341 852Q341 892 363 911T419 930Q453 930 475 911T497 852Q497 814 475 794T419 774ZM179 774Q146 774 124 793T102 852Q102 892 124 911T179
930Q213 930 235 911T258 852Q258 814 236 794T179 774Z" />
<glyph unicode="&#xd7;" horiz-adv-x="600" d="M161 132L79 216L213 353L78 489L161 575L299 439L437 575L522 491L383 353L520 215L437 132L299 269L161 132Z" />
<glyph unicode="&#xd8;" horiz-adv-x="600" d="M93 -45L7 13L506 755L591 699L93 -45ZM300 -10Q229 -10 177 14T92 86T42 202T25 358Q25 476 55 558T145 683T300 726Q371 726 423 701T508 629T558 513T575 358Q575 271 559 203T509 87T423 15T300 -10ZM300 127Q341
127 365 152T401 229T413 359Q413 474 388 531T300 589Q260 589 235 564T199 488T187 358Q187 279 198 228T234 152T300 127Z" />
<glyph unicode="&#xd9;" horiz-adv-x="600" d="M299 -10Q217 -10 160 20T73 108T43 250V714H202V270Q202 218 212 187T244 143T299 129Q333 129 355 143T387 188T398 271V714H557V253Q557 172 528 113T442 22T299 -10ZM293 771Q277 783 254 803T207 845T160 887T125
922V931H301Q313 910 332 882T370 828T402 784V771H293Z" />
<glyph unicode="&#xda;" horiz-adv-x="600" d="M299 -10Q217 -10 160 20T73 108T43 250V714H202V270Q202 218 212 187T244 143T299 129Q333 129 355 143T387 188T398 271V714H557V253Q557 172 528 113T442 22T299 -10ZM221 784Q238 807 256 832T292 883T322 931H498V922Q480
903 450 875T388 819T330 771H221V784Z" />
<glyph unicode="&#xdb;" horiz-adv-x="600" d="M299 -10Q217 -10 160 20T73 108T43 250V714H202V270Q202 218 212 187T244 143T299 129Q333 129 355 143T387 188T398 271V714H557V253Q557 172 528 113T442 22T299 -10ZM111 784Q128 803 149 829T190 883T222 931H379Q392
909 410 883T449 832T488 784V771H390Q368 786 346 805T300 850Q276 825 254 806T211 771H111V784Z" />
<glyph unicode="&#xdc;" horiz-adv-x="600" d="M299 -10Q217 -10 160 20T73 108T43 250V714H202V270Q202 218 212 187T244 143T299 129Q333 129 355 143T387 188T398 271V714H557V253Q557 172 528 113T442 22T299 -10ZM419 774Q385 774 363 794T341 852Q341 892
363 911T419 930Q453 930 475 911T497 852Q497 814 475 794T419 774ZM179 774Q146 774 124 793T102 852Q102 892 124 911T179 930Q213 930 235 911T258 852Q258 814 236 794T179 774Z" />
<glyph unicode="&#xdd;" horiz-adv-x="600" d="M221 0V277L18 714H185L301 434L416 714H582L380 277V0H221ZM221 784Q238 807 256 832T292 883T322 931H498V922Q480 903 450 875T388 819T330 771H221V784Z" />
<glyph unicode="&#xde;" horiz-adv-x="600" d="M71 0V714H222V594H320Q443 594 504 536T565 369Q565 300 540 245T459 158T313 126H222V0H71ZM296 259Q332 259 356 271T393 307T406 365Q406 411 383 436T307 461H222V259H296Z" />
<glyph unicode="&#xdf;" horiz-adv-x="600" d="M384 -10Q349 -10 313 -4T247 20V153Q271 137 304 126T367 114Q395 114 411 126T427 164Q427 178 421 187T398 210T349 244Q318 265 297 285T266 328T255 379Q255 411 267 433T296 472T331 503T360 534T372 574Q372
605 350 620T292 636Q260 636 240 624T210 589T201 532V0H50V546Q50 617 80 665T164 739T294 765Q360 765 412 745T494 687T525 593Q525 557 513 531T484 487T450 454T420 426T408 400Q408 387 419 376T448 352T487 324Q517 302 538 280T571 231T582 161Q582 106
560 68T494 10T384 -10Z" />
<glyph unicode="&#xe0;" horiz-adv-x="600" d="M225 -10Q135 -10 90 37T45 161Q45 224 72 262T150 320T271 341L389 345V366Q389 400 365 417T288 434Q255 434 215 426T132 401L82 510Q132 535 186 547T299 559Q419 559 479 512T540 370V0H420L399 68H395Q369
36 340 19T281 -4T225 -10ZM273 114Q304 114 330 125T373 158T389 212V249L317 247Q277 247 250 239T210 216T196 175Q196 143 217 129T273 114ZM558 606Q542 618 519 638T472 680T425 722T390 757V766H566Q578 745 597 717T635 663T667 619V606H558Z" />
<glyph unicode="&#xe1;" horiz-adv-x="600" d="M225 -10Q135 -10 90 37T45 161Q45 224 72 262T150 320T271 341L389 345V366Q389 400 365 417T288 434Q255 434 215 426T132 401L82 510Q132 535 186 547T299 559Q419 559 479 512T540 370V0H420L399 68H395Q369
36 340 19T281 -4T225 -10ZM273 114Q304 114 330 125T373 158T389 212V249L317 247Q277 247 250 239T210 216T196 175Q196 143 217 129T273 114ZM229 619Q246 642 264 667T300 718T330 766H506V757Q488 738 458 710T396 654T338 606H229V619Z" />
<glyph unicode="&#xe2;" horiz-adv-x="600" d="M225 -10Q135 -10 90 37T45 161Q45 224 72 262T150 320T271 341L389 345V366Q389 400 365 417T288 434Q255 434 215 426T132 401L82 510Q132 535 186 547T299 559Q419 559 479 512T540 370V0H420L399 68H395Q369
36 340 19T281 -4T225 -10ZM273 114Q304 114 330 125T373 158T389 212V249L317 247Q277 247 250 239T210 216T196 175Q196 143 217 129T273 114ZM120 619Q137 638 158 664T199 718T231 766H388Q401 744 419 718T458 667T497 619V606H399Q377 621 355 640T309 685Q285
660 263 641T220 606H120V619Z" />
<glyph unicode="&#xe3;" horiz-adv-x="600" d="M225 -10Q135 -10 90 37T45 161Q45 224 72 262T150 320T271 341L389 345V366Q389 400 365 417T288 434Q255 434 215 426T132 401L82 510Q132 535 186 547T299 559Q419 559 479 512T540 370V0H420L399 68H395Q369
36 340 19T281 -4T225 -10ZM273 114Q304 114 330 125T373 158T389 212V249L317 247Q277 247 250 239T210 216T196 175Q196 143 217 129T273 114ZM113 605Q115 638 122 667T142 717T176 750T223 762Q245 762 266 755T307 738T345 721T382 713Q401 713 409 726T421
763H503Q499 684 468 645T392 606Q371 606 350 613T307 630T267 647T231 655Q215 655 207 644T194 605H113Z" />
<glyph unicode="&#xe4;" horiz-adv-x="600" d="M225 -10Q135 -10 90 37T45 161Q45 224 72 262T150 320T271 341L389 345V366Q389 400 365 417T288 434Q255 434 215 426T132 401L82 510Q132 535 186 547T299 559Q419 559 479 512T540 370V0H420L399 68H395Q369
36 340 19T281 -4T225 -10ZM273 114Q304 114 330 125T373 158T389 212V249L317 247Q277 247 250 239T210 216T196 175Q196 143 217 129T273 114ZM427 609Q393 609 371 629T349 687Q349 727 371 746T427 765Q461 765 483 746T505 687Q505 649 483 629T427 609ZM187
609Q154 609 132 628T110 687Q110 727 132 746T187 765Q221 765 243 746T266 687Q266 649 244 629T187 609Z" />
<glyph unicode="&#xe5;" horiz-adv-x="600" d="M225 -10Q135 -10 90 37T45 161Q45 224 72 262T150 320T271 341L389 345V366Q389 400 365 417T288 434Q255 434 215 426T132 401L82 510Q132 535 186 547T299 559Q419 559 479 512T540 370V0H420L399 68H395Q369
36 340 19T281 -4T225 -10ZM273 114Q304 114 330 125T373 158T389 212V249L317 247Q277 247 250 239T210 216T196 175Q196 143 217 129T273 114ZM307 605Q252 605 218 637T184 724Q184 778 218 810T307 843Q360 843 395 811T431 725Q431 671 396 638T307 605ZM307
681Q326 681 338 692T351 724Q351 744 339 756T307 768Q289 768 276 756T263 724Q263 705 274 693T307 681Z" />
<glyph unicode="&#xe6;" horiz-adv-x="600" d="M155 -10Q84 -10 46 33T8 157Q8 217 28 255T87 313T178 334L239 336V371Q239 404 222 418T170 433Q149 433 129 428T86 413L37 520Q73 540 109 549T185 559Q226 559 256 549T312 517Q340 539 367 549T426 559Q488
559 524 525T576 434T592 306V236H370Q371 194 384 167T421 125T478 111Q503 111 524 119T567 145V28Q546 9 515 0T448 -10Q396 -10 358 11T293 72Q267 32 236 11T155 -10ZM189 109Q209 109 219 121T234 155T239 205V249H211Q180 249 163 226T146 168Q146 139 157
124T189 109ZM465 333Q465 367 460 388T445 421T419 433Q392 433 382 406T371 333H465Z" />
<glyph unicode="&#xe7;" horiz-adv-x="600" d="M333 -10Q242 -10 183 21T95 115T65 268Q65 361 95 425T186 524T340 559Q385 559 433 550T525 521L478 400Q435 417 404 422T350 428Q308 428 280 411T238 360T223 275Q223 221 239 187T284 137T354 121Q384 121
423 130T506 169V30Q463 8 421 -1T333 -10ZM308 -240Q287 -240 266 -237T228 -229V-147Q242 -151 256 -153T283 -156Q304 -156 317 -148T330 -122Q330 -102 313 -92T258 -78L292 5H372L359 -34Q397 -42 421 -65T446 -132Q446 -180 413 -210T308 -240Z" />
<glyph unicode="&#xe8;" horiz-adv-x="600" d="M344 -10Q247 -10 181 23T80 121T45 276Q45 362 75 426T164 524T307 559Q386 559 441 528T525 439T554 301V227H197Q199 190 221 166T279 129T360 116Q402 116 446 126T536 157V29Q489 7 439 -1T344 -10ZM411 334Q411
367 398 391T362 428T308 441Q262 441 234 413T200 334H411ZM557 606Q541 618 518 638T471 680T424 722T389 757V766H565Q577 745 596 717T634 663T666 619V606H557Z" />
<glyph unicode="&#xe9;" horiz-adv-x="600" d="M344 -10Q247 -10 181 23T80 121T45 276Q45 362 75 426T164 524T307 559Q386 559 441 528T525 439T554 301V227H197Q199 190 221 166T279 129T360 116Q402 116 446 126T536 157V29Q489 7 439 -1T344 -10ZM411 334Q411
367 398 391T362 428T308 441Q262 441 234 413T200 334H411ZM229 619Q246 642 264 667T300 718T330 766H506V757Q488 738 458 710T396 654T338 606H229V619Z" />
<glyph unicode="&#xea;" horiz-adv-x="600" d="M344 -10Q247 -10 181 23T80 121T45 276Q45 362 75 426T164 524T307 559Q386 559 441 528T525 439T554 301V227H197Q199 190 221 166T279 129T360 116Q402 116 446 126T536 157V29Q489 7 439 -1T344 -10ZM411 334Q411
367 398 391T362 428T308 441Q262 441 234 413T200 334H411ZM119 619Q136 638 157 664T198 718T230 766H387Q400 744 418 718T457 667T496 619V606H398Q376 621 354 640T308 685Q284 660 262 641T219 606H119V619Z" />
<glyph unicode="&#xeb;" horiz-adv-x="600" d="M344 -10Q247 -10 181 23T80 121T45 276Q45 362 75 426T164 524T307 559Q386 559 441 528T525 439T554 301V227H197Q199 190 221 166T279 129T360 116Q402 116 446 126T536 157V29Q489 7 439 -1T344 -10ZM411 334Q411
367 398 391T362 428T308 441Q262 441 234 413T200 334H411ZM427 609Q393 609 371 629T349 687Q349 727 371 746T427 765Q461 765 483 746T505 687Q505 649 483 629T427 609ZM187 609Q154 609 132 628T110 687Q110 727 132 746T187 765Q221 765 243 746T266 687Q266
649 244 629T187 609Z" />
<glyph unicode="&#xec;" horiz-adv-x="600" d="M51 0V106L235 129V420L85 436V549H393V129L555 106V0H51ZM549 606Q533 618 510 638T463 680T416 722T381 757V766H557Q569 745 588 717T626 663T658 619V606H549Z" />
<glyph unicode="&#xed;" horiz-adv-x="600" d="M51 0V106L235 129V420L85 436V549H393V129L555 106V0H51ZM221 619Q238 642 256 667T292 718T322 766H498V757Q480 738 450 710T388 654T330 606H221V619Z" />
<glyph unicode="&#xee;" horiz-adv-x="600" d="M51 0V106L235 129V420L85 436V549H393V129L555 106V0H51ZM367 619Q384 638 405 664T446 718T478 766H635Q648 744 666 718T705 667T744 619V606H646Q624 621 602 640T556 685Q532 660 510 641T467 606H367V619Z" />
<glyph unicode="&#xef;" horiz-adv-x="600" d="M51 0V106L235 129V420L85 436V549H393V129L555 106V0H51ZM675 609Q641 609 619 629T597 687Q597 727 619 746T675 765Q709 765 731 746T753 687Q753 649 731 629T675 609ZM435 609Q402 609 380 628T358 687Q358
727 380 746T435 765Q469 765 491 746T514 687Q514 649 492 629T435 609Z" />
<glyph unicode="&#xf0;" horiz-adv-x="600" d="M296 -10Q221 -10 162 19T69 104T35 242Q35 321 65 375T148 459T269 488Q316 488 347 477T393 442L397 444Q381 480 356 514T300 578T233 634T159 681L209 766Q296 730 362 680T474 568T542 433T565 282Q565 143
493 67T296 -10ZM299 105Q338 105 360 122T393 171T404 250Q404 285 393 312T359 356T297 373Q261 373 239 358T207 313T197 241Q197 201 207 170T240 122T299 105ZM202 506L151 584L444 765L495 687L202 506Z" />
<glyph unicode="&#xf1;" horiz-adv-x="600" d="M50 0V549H170L193 479H202Q219 506 243 523T298 550T368 559Q461 559 508 507T555 357V0H396V311Q396 373 375 401T312 430Q256 430 233 382T209 250V0H50ZM114 605Q116 638 123 667T143 717T177 750T224 762Q246
762 267 755T308 738T346 721T383 713Q402 713 410 726T422 763H504Q500 684 469 645T393 606Q372 606 351 613T308 630T268 647T232 655Q216 655 208 644T195 605H114Z" />
<glyph unicode="&#xf2;" horiz-adv-x="600" d="M302 -10Q238 -10 188 10T104 68T53 158T35 276Q35 360 65 424T155 523T298 559Q381 559 441 525T533 426T565 271Q565 209 548 157T498 68T416 11T302 -10ZM301 118Q338 118 361 137T396 191T407 274Q407 321 396
356T362 411T301 431Q245 431 219 388T193 274Q193 226 204 191T240 137T301 118ZM549 606Q533 618 510 638T463 680T416 722T381 757V766H557Q569 745 588 717T626 663T658 619V606H549Z" />
<glyph unicode="&#xf3;" horiz-adv-x="600" d="M302 -10Q238 -10 188 10T104 68T53 158T35 276Q35 360 65 424T155 523T298 559Q381 559 441 525T533 426T565 271Q565 209 548 157T498 68T416 11T302 -10ZM301 118Q338 118 361 137T396 191T407 274Q407 321 396
356T362 411T301 431Q245 431 219 388T193 274Q193 226 204 191T240 137T301 118ZM221 619Q238 642 256 667T292 718T322 766H498V757Q480 738 450 710T388 654T330 606H221V619Z" />
<glyph unicode="&#xf4;" horiz-adv-x="600" d="M302 -10Q238 -10 188 10T104 68T53 158T35 276Q35 360 65 424T155 523T298 559Q381 559 441 525T533 426T565 271Q565 209 548 157T498 68T416 11T302 -10ZM301 118Q338 118 361 137T396 191T407 274Q407 321 396
356T362 411T301 431Q245 431 219 388T193 274Q193 226 204 191T240 137T301 118ZM367 619Q384 638 405 664T446 718T478 766H635Q648 744 666 718T705 667T744 619V606H646Q624 621 602 640T556 685Q532 660 510 641T467 606H367V619Z" />
<glyph unicode="&#xf5;" horiz-adv-x="600" d="M302 -10Q238 -10 188 10T104 68T53 158T35 276Q35 360 65 424T155 523T298 559Q381 559 441 525T533 426T565 271Q565 209 548 157T498 68T416 11T302 -10ZM301 118Q338 118 361 137T396 191T407 274Q407 321 396
356T362 411T301 431Q245 431 219 388T193 274Q193 226 204 191T240 137T301 118ZM105 605Q107 638 114 667T134 717T168 750T215 762Q237 762 258 755T299 738T337 721T374 713Q393 713 401 726T413 763H495Q491 684 460 645T384 606Q363 606 342 613T299 630T259
647T223 655Q207 655 199 644T186 605H105Z" />
<glyph unicode="&#xf6;" horiz-adv-x="600" d="M302 -10Q238 -10 188 10T104 68T53 158T35 276Q35 360 65 424T155 523T298 559Q381 559 441 525T533 426T565 271Q565 209 548 157T498 68T416 11T302 -10ZM301 118Q338 118 361 137T396 191T407 274Q407 321 396
356T362 411T301 431Q245 431 219 388T193 274Q193 226 204 191T240 137T301 118ZM675 609Q641 609 619 629T597 687Q597 727 619 746T675 765Q709 765 731 746T753 687Q753 649 731 629T675 609ZM435 609Q402 609 380 628T358 687Q358 727 380 746T435 765Q469
765 491 746T514 687Q514 649 492 629T435 609Z" />
<glyph unicode="&#xf7;" horiz-adv-x="600" d="M65 294V412H535V294H65ZM301 86Q269 86 249 106T228 167Q228 208 248 227T301 246Q333 246 353 227T373 167Q373 127 353 107T301 86ZM301 460Q269 460 249 479T228 539Q228 581 248 600T301 619Q333 619 353 600T373
539Q373 500 353 480T301 460Z" />
<glyph unicode="&#xf8;" horiz-adv-x="600" d="M147 -39L71 11L453 585L528 533L147 -39ZM302 -10Q238 -10 188 10T104 68T53 158T35 276Q35 360 65 424T155 523T298 559Q381 559 441 525T533 426T565 271Q565 209 548 157T498 68T416 11T302 -10ZM301 118Q338
118 361 137T396 191T407 274Q407 321 396 356T362 411T301 431Q245 431 219 388T193 274Q193 226 204 191T240 137T301 118Z" />
<glyph unicode="&#xf9;" horiz-adv-x="600" d="M230 -10Q139 -10 92 42T45 191V549H204V236Q204 180 222 150T288 119Q331 119 353 140T383 198T391 283V549H550V0H430L407 70H398Q381 44 357 26T301 -1T230 -10ZM549 606Q533 618 510 638T463 680T416 722T381
757V766H557Q569 745 588 717T626 663T658 619V606H549Z" />
<glyph unicode="&#xfa;" horiz-adv-x="600" d="M230 -10Q139 -10 92 42T45 191V549H204V236Q204 180 222 150T288 119Q331 119 353 140T383 198T391 283V549H550V0H430L407 70H398Q381 44 357 26T301 -1T230 -10ZM221 619Q238 642 256 667T292 718T322 766H498V757Q480
738 450 710T388 654T330 606H221V619Z" />
<glyph unicode="&#xfb;" horiz-adv-x="600" d="M230 -10Q139 -10 92 42T45 191V549H204V236Q204 180 222 150T288 119Q331 119 353 140T383 198T391 283V549H550V0H430L407 70H398Q381 44 357 26T301 -1T230 -10ZM367 619Q384 638 405 664T446 718T478 766H635Q648
744 666 718T705 667T744 619V606H646Q624 621 602 640T556 685Q532 660 510 641T467 606H367V619Z" />
<glyph unicode="&#xfc;" horiz-adv-x="600" d="M230 -10Q139 -10 92 42T45 191V549H204V236Q204 180 222 150T288 119Q331 119 353 140T383 198T391 283V549H550V0H430L407 70H398Q381 44 357 26T301 -1T230 -10ZM675 609Q641 609 619 629T597 687Q597 727 619
746T675 765Q709 765 731 746T753 687Q753 649 731 629T675 609ZM435 609Q402 609 380 628T358 687Q358 727 380 746T435 765Q469 765 491 746T514 687Q514 649 492 629T435 609Z" />
<glyph unicode="&#xfd;" horiz-adv-x="600" d="M129 -245Q111 -245 93 -243T54 -237V-109Q68 -112 81 -113T106 -115Q137 -115 159 -105T198 -74T224 -25L235 5L15 549H187L287 246Q293 226 298 204T309 153H312Q315 171 318 188T325 220T332 246L418 549H585L375
-41Q350 -109 317 -154T237 -222T129 -245ZM221 619Q238 642 256 667T292 718T322 766H498V757Q480 738 450 710T388 654T330 606H221V619Z" />
<glyph unicode="&#xfe;" horiz-adv-x="600" d="M50 -240V760H207V590Q207 562 205 536T200 478H206Q225 506 249 524T303 550T364 559Q418 559 456 537T518 475T553 385T565 278Q565 190 540 125T469 25T357 -10Q329 -10 302 -3T251 19T206 58H198Q202 34 204
10T206 -25V-240H50ZM308 119Q357 119 380 158T403 277Q403 352 381 391T307 430Q259 430 233 395T206 291V276Q206 195 233 157T308 119Z" />
<glyph unicode="&#xff;" horiz-adv-x="600" d="M129 -245Q111 -245 93 -243T54 -237V-109Q68 -112 81 -113T106 -115Q137 -115 159 -105T198 -74T224 -25L235 5L15 549H187L287 246Q293 226 298 204T309 153H312Q315 171 318 188T325 220T332 246L418 549H585L375
-41Q350 -109 317 -154T237 -222T129 -245ZM675 609Q641 609 619 629T597 687Q597 727 619 746T675 765Q709 765 731 746T753 687Q753 649 731 629T675 609ZM435 609Q402 609 380 628T358 687Q358 727 380 746T435 765Q469 765 491 746T514 687Q514 649 492 629T435
609Z" />
<glyph unicode="&#x2013;" horiz-adv-x="600" d="M100 200V337H500V200H100Z" />
<glyph unicode="&#x2014;" horiz-adv-x="600" d="M0 200V337H600V200H0Z" />
<glyph unicode="&#x2018;" horiz-adv-x="600" d="M200 468Q209 504 223 547T253 634T286 714H399Q390 673 381 627T363 538T350 457H207L200 468Z" />
<glyph unicode="&#x2019;" horiz-adv-x="600" d="M205 451Q213 484 219 519T232 589T243 656T251 714H395L402 703Q394 665 382 623T354 536T320 451H205Z" />
<glyph unicode="&#x201a;" horiz-adv-x="600" d="M189 -158Q200 -113 209 -58T227 51T241 144H393L400 132Q393 106 384 70T363 -7T338 -87T311 -158H189Z" />
<glyph unicode="&#x201c;" horiz-adv-x="600" d="M340 468Q349 504 363 547T393 634T426 714H539Q530 673 521 627T503 538T490 457H347L340 468ZM316 468Q325 504 339 547T369 634T402 714H515Q506 673 497 627T479 538T466 457H323L316 468Z" />
<glyph unicode="&#x201d;" horiz-adv-x="600" d="M515 703Q506 668 492 625T462 538T429 457H316Q326 499 335 544T352 634T365 714H508L515 703ZM283 703Q274 668 260 625T230 538T197 457H84Q94 499 103 544T120 634T133 714H276L283 703Z" />
<glyph unicode="&#x201e;" horiz-adv-x="600" d="M318 -158Q329 -113 338 -58T356 51T370 144H522L529 132Q522 106 513 70T492 -7T467 -87T440 -158H318ZM360 -158Q371 -113 380 -58T398 51T412 144H564L571 132Q564 106 555 70T534 -7T509 -87T482 -158H360Z" />
<glyph unicode="&#x2022;" horiz-adv-x="600" d="M300 206Q239 206 198 243T156 365Q156 452 197 488T300 524Q340 524 372 509T424 458T444 365Q444 309 425 274T373 222T300 206Z" />
<glyph unicode="&#x2039;" horiz-adv-x="600" d="M335 45L152 268V281L335 506L448 445L312 275L448 105L335 45Z" />
<glyph unicode="&#x203a;" horiz-adv-x="600" d="M264 514L447 291V278L264 53L151 114L287 284L151 454L264 514Z" />
</font>
</defs>
</svg>
